<?xml version="1.0" standalone="no"?>
<!DOCTYPE svg PUBLIC "-//W3C//DTD SVG 1.1//EN" "http://www.w3.org/Graphics/SVG/1.1/DTD/svg11.dtd">
<svg xmlns="http://www.w3.org/2000/svg">
<metadata>Copyright (C) 2017 by original authors @ fontello.com</metadata>
<defs>
<font id="callluge" horiz-adv-x="1000" >
<font-face font-family="callluge" font-weight="400" font-stretch="normal" units-per-em="1000" ascent="850" descent="-150" />
<missing-glyph horiz-adv-x="1000" />
<glyph glyph-name="loader-logo" unicode="&#xe800;" d="M143-150l-143 0 0 525 143 94 0-619z m238 0l-143 0 0 699 143 111 0-810z m238 0l-143 0 0 890 143 110 0-1000z" horiz-adv-x="619" />

<glyph glyph-name="filter-1" unicode="&#xe801;" d="M783 685q9-22-8-39l-275-275v-414q0-23-22-33-7-3-14-3-15 0-25 11l-143 143q-10 11-10 25v271l-275 275q-18 17-8 39 9 22 33 22h714q23 0 33-22z" horiz-adv-x="785.7" />

<glyph glyph-name="facebook" unicode="&#xe802;" d="M948-76c0-29-14-49-43-49l-246 0 0 369 125 0 19 158-144 0 0 82c0 43 11 76 71 76l87 0 0 126c-27 2-68 6-121 6-111 0-195-68-195-193l0-97-132 0 0-158 132 0 0-369-457 0c-29 0-44 20-44 49l0 860c0 30 15 66 44 66l861 0c29 0 43-36 43-66l0-860 0 0z" horiz-adv-x="950" />

<glyph glyph-name="search" unicode="&#xe803;" d="M658 239l-41 0-14 15c50 63 81 145 81 235 0 199-150 361-335 361-185 0-335-162-335-361 0-200 150-361 335-361 83 0 159 33 218 87l14-16 0-43 257-278 77 83-257 278 0 0z m-309 0c-129 0-232 112-232 250 0 138 103 250 232 250 128 0 232-112 232-250 0-138-104-250-232-250l0 0z" horiz-adv-x="944" />

<glyph glyph-name="notification" unicode="&#xe804;" d="M579 425c0 0-1 0-2 0-20 0-37 15-38 36-3 48-41 66-45 68-19 8-28 30-20 49 8 19 29 29 49 21 3-2 86-36 92-134 1-21-15-39-36-40z m-119-344c-2 0-4 0-6 0-2 0-4 0-6 0l-256 0c41 76 41 194 41 304 0 176 76 270 215 270l12 0c139 0 216-94 216-270 0-110 0-228 40-304l-256 0z m-8-140c-14 0-20 7-24 11-9 10-14 21-16 42l36 0c2 0 4 1 6 1 2 0 4-1 6-1l36 0c-3-21-9-32-18-42-4-4-11-11-26-11z m313 442c0 208-94 338-257 358l0 66c0 24-19 43-43 43-24 0-43-19-43-43l0-65c-173-14-274-146-274-359 0-265-31-307-104-307-24 0-44-17-44-41 0-24 19-41 43-41l281 0c4-32 13-72 40-101 22-24 53-39 88-39 36 0 66 15 89 39 28 29 39 69 43 101l282 0c24 0 43 17 43 41 0 24-19 41-43 41-73 0-101 42-101 307z" horiz-adv-x="909" />

<glyph glyph-name="password" unicode="&#xe805;" d="M722 461h-55v278c0 61-50 111-111 111h-334c-61 0-111-50-111-111v-278h-55c-31 0-56-25-56-55v-500c0-31 25-56 56-56h666c31 0 56 25 56 56v500c0 30-25 55-56 55z m-500 278h334l0-278h-334v278z" horiz-adv-x="778" />

<glyph glyph-name="google-plus" unicode="&#xe806;" d="M307 850l252 0 0-4c0-30-50-34-85-41-11 0-36-2-42-7 63-33 74-90 74-171 0-94-35-144-74-177-22-23-42-39-42-61 0-23 27-45 55-72 48-43 114-101 114-200 0-104-44-178-127-219-66-33-136-38-165-38-4 0-6 2-8 2 0 0-2-2-5-2-41 0-254 11-254 209 0 194 230 210 300 210l3 0c-40 56-33 112-33 112l-16 0c-26 0-76 5-120 34-55 34-81 94-81 180 0 236 252 245 254 245l0 0z m-9-623l-17 0c-49-2-92-23-125-52-31-29-49-67-46-106 6-78 87-123 188-117 99 7 167 66 160 144-4 77-66 131-160 131l0 0z m-39 553c-7 0-13 0-22-2-29-9-51-34-64-70-11-36-13-74-2-119 20-76 75-133 129-133 7 0 14 0 20 3 61 18 99 110 72 200-26 94-68 121-133 121l0 0z m723-317l0-106-164 0 0-168-103 0 0 168-165 0 0 106 165 0 0 169 103 0 0-169 164 0 0 0z" horiz-adv-x="1000" />

<glyph glyph-name="name" unicode="&#xe807;" d="M500 350c138 0 250 112 250 250 0 138-112 250-250 250-138 0-250-112-250-250 0-138 112-250 250-250l0 0z m0-125c-167 0-500-84-500-250l0-125 1000 0 0 125c0 166-333 250-500 250l0 0z" horiz-adv-x="1000" />

<glyph glyph-name="phone" unicode="&#xe808;" d="M126 507c23-133 93-264 201-373l136 38c17 5 37 0 51-11 46-35 99-67 156-91 25-11 39-36 30-56l-54-129c-9-21-37-28-62-18-433 184-665 614-518 961 8 20 36 28 62 17l161-68c26-11 39-36 31-57-20-46-30-94-30-143 0-15-10-27-28-32l-136-38 0 0z" horiz-adv-x="727" />

<glyph glyph-name="company" unicode="&#xe809;" d="M556 605l0 203-510 0 0-916 1019 0 0 713-509 0 0 0z m-306-612l-102 0 0 102 102 0 0-102 0 0z m0 204l-102 0 0 102 102 0 0-102 0 0z m0 204l-102 0 0 102 102 0 0-102 0 0z m0 204l-102 0 0 102 102 0 0-102 0 0z m204-612l-102 0 0 102 102 0 0-102 0 0z m0 204l-102 0 0 102 102 0 0-102 0 0z m0 204l-102 0 0 102 102 0 0-102 0 0z m0 204l-102 0 0 102 102 0 0-102 0 0z m509-612l-407 0 0 102 101 0 0 102-101 0 0 102 101 0 0 102-101 0 0 102 407 0 0-510 0 0z m-102 408l-102 0 0-102 102 0 0 102 0 0z m0-204l-102 0 0-102 102 0 0 102 0 0z" horiz-adv-x="1111" />

<glyph glyph-name="minus" unicode="&#xe80a;" d="M550 400q30 0 30-50t-30-50l-520 0q-30 0-30 50t30 50l520 0z" horiz-adv-x="580" />

<glyph glyph-name="client-overview" unicode="&#xe80b;" d="M592 324c0 12-3 23-9 33l-113 0c-6-10-9-21-9-33 0-37 29-66 65-66 37 0 66 29 66 66l0 0z m66 0c0-73-59-132-132-132-72 0-131 59-131 132 0 11 2 22 4 33l-399 0 0-362c0-73 59-132 132-132l789 0c73 0 132 59 132 132l0 362-400 0c3-11 5-22 5-33l0 0z m0 394l-263 0 0 33c0 19 15 33 33 33l197 0c18 0 33-14 33-33l0-33 0 0z m263 0l-197 0 0 66c0 37-30 66-66 66l-263 0c-37 0-66-29-66-66l0-66-197 0c-73 0-132-58-132-131l0-165 1053 0 0 165c0 73-59 131-132 131l0 0z" horiz-adv-x="1053" />

<glyph glyph-name="ad-groups" unicode="&#xe80c;" d="M643 571l-429 0c-17 0-30 21-30 48 0 26 13 47 30 47l429 0c17 0 31-21 31-47 0-27-14-48-31-48l0 0z m0-183l-429 0c-17 0-30 22-30 48 0 26 13 47 30 47l429 0c17 0 31-21 31-47 0-26-14-48-31-48l0 0z m0-184l-429 0c-17 0-30 21-30 47 0 27 13 48 30 48l429 0c17 0 31-21 31-48 0-26-14-47-31-47l0 0z m92 646l-613 0c-67 0-122-55-122-122l0-858 57 0 127 92 122-92 123 92 122-92 123 92 126-92 57 0 0 858c0 67-55 122-122 122l0 0z" horiz-adv-x="857" />

<glyph glyph-name="campaigns" unicode="&#xe80d;" d="M690 640l-180 0 0-510 180 0c33 0 60 27 60 60l0 390c0 33-27 60-60 60l0 0z m-510-420l270 0 0 540-270 0 0-540z m-60 540l60 0 0 30c0 0-1 60-60 60l-60 0c-33 0-60-27-60-60l0-840c0-33 27-60 60-60l60 0c33 0 60 27 60 60l0 270-60 0 0 540 0 0z" horiz-adv-x="750" />

<glyph glyph-name="accounts" unicode="&#xe80e;" d="M592 324c0 12-3 23-9 33l-113 0c-6-10-9-21-9-33 0-37 29-66 65-66 37 0 66 29 66 66l0 0z m66 0c0-73-59-132-132-132-72 0-131 59-131 132 0 11 2 22 4 33l-399 0 0-362c0-73 59-132 132-132l789 0c73 0 132 59 132 132l0 362-400 0c3-11 5-22 5-33l0 0z m0 394l-263 0 0 33c0 19 15 33 33 33l197 0c18 0 33-14 33-33l0-33 0 0z m263 0l-197 0 0 66c0 37-30 66-66 66l-263 0c-37 0-66-29-66-66l0-66-197 0c-73 0-132-58-132-131l0-165 1053 0 0 165c0 73-59 131-132 131l0 0z" horiz-adv-x="1053" />

<glyph glyph-name="lead-centre" unicode="&#xe80f;" d="M1643 636c0-79-64-143-143-143-13 0-25 1-36 5l-255-254c4-11 5-24 5-37 0-78-64-143-143-143-78 0-142 65-142 143 0 13 1 26 5 37l-183 182c-11-3-24-5-37-5-13 0-25 2-37 5l-325-325c4-12 5-24 5-37 0-78-64-143-143-143-78 0-143 65-143 143 0 79 65 143 143 143 13 0 25-1 37-5l325 325c-3 12-5 24-5 37 0 79 65 143 143 143 79 0 143-64 143-143 0-13-1-25-5-37l182-182c12 4 25 5 37 5 13 0 26-1 38-5l253 254c-3 12-5 24-5 37 0 78 64 143 143 143 79 0 143-65 143-143l0 0z" horiz-adv-x="1714" />

<glyph glyph-name="add" unicode="&#xe810;" d="M688 319l-157 0 0-156c0-18-14-32-31-32-17 0-31 14-31 32l0 156-156 0c-18 0-32 14-32 31 0 17 14 31 32 31l156 0 0 157c0 17 14 31 31 31 17 0 31-14 31-31l0-157 157 0c17 0 31-14 31-31 0-17-14-31-31-31l0 0z m187 531l-750 0c-69 0-125-56-125-125l0-750c0-69 56-125 125-125l750 0c69 0 125 56 125 125l0 750c0 69-56 125-125 125l0 0z" horiz-adv-x="1000" />

<glyph glyph-name="left" unicode="&#xe811;" d="M357 600v-500q0-14-10-25t-26-11-25 11l-250 250q-10 11-10 25t10 25l250 250q11 11 25 11t26-11 10-25z" horiz-adv-x="357.1" />

<glyph glyph-name="login" unicode="&#xe812;" d="M800 800q42 0 71-29t29-71l0-700q0-40-29-70t-71-30l-450 0q-40 0-69 30t-29 70l0 100 98 0 0-100 450 0 0 700-450 0 0-150-98 0 0 150q0 42 29 71t69 29l450 0z m-350-670l0 120-450 0 0 150 450 0 0 120 200-194z" horiz-adv-x="900" />

<glyph glyph-name="tick" unicode="&#xe813;" d="M249 0q-34 0-56 28l-180 236q-16 24-12 52t26 46 51 14 47-28l118-154 296 474q16 24 43 30t53-8q24-16 30-43t-8-53l-350-560q-20-32-56-32z" horiz-adv-x="667" />

<glyph glyph-name="cross" unicode="&#xe814;" d="M452 194q18-18 18-43t-18-43q-18-16-43-16t-43 16l-132 152-132-152q-18-16-43-16t-43 16q-16 18-16 43t16 43l138 156-138 158q-16 18-16 43t16 43q18 16 43 16t43-16l132-152 132 152q18 16 43 16t43-16q18-18 18-43t-18-43l-138-158z" horiz-adv-x="470" />

<glyph glyph-name="edit" unicode="&#xe815;" d="M496 189l64 65-85 85-64-65v-31h53v-54h32z m245 402q-9 9-18 0l-196-196q-9-9 0-18t18 0l196 196q9 9 0 18z m45-331v-106q0-67-47-114t-114-47h-464q-67 0-114 47t-47 114v464q0 66 47 113t114 48h464q35 0 65-14 9-4 10-13 2-10-5-16l-27-28q-8-8-18-4-13 3-25 3h-464q-37 0-63-26t-27-63v-464q0-37 27-63t63-27h464q37 0 63 27t26 63v70q0 7 5 12l36 36q8 8 20 4t11-16z m-54 411l161-160-375-375h-161v160z m248-73l-51-52-161 161 51 52q16 15 38 15t38-15l85-85q16-16 16-38t-16-38z" horiz-adv-x="1000" />

<glyph glyph-name="right-line" unicode="&#xe816;" d="M13 180l158 170-158 172q-26 26 0 48 26 26 48 0l192-194q24-26 0-50l-192-194q-22-26-48 0-26 22 0 48z" horiz-adv-x="265" />

<glyph glyph-name="left-line" unicode="&#xe817;" d="M252 180q26-26 0-48-26-26-48 0l-192 194q-24 24 0 50l192 194q22 26 48 0 26-22 0-48l-156-172z" horiz-adv-x="265" />

<glyph glyph-name="delete" unicode="&#xe818;" d="M286 439v-321q0-8-5-13t-13-5h-36q-8 0-13 5t-5 13v321q0 8 5 13t13 5h36q8 0 13-5t5-13z m143 0v-321q0-8-5-13t-13-5h-36q-8 0-13 5t-5 13v321q0 8 5 13t13 5h36q8 0 13-5t5-13z m142 0v-321q0-8-5-13t-12-5h-36q-8 0-13 5t-5 13v321q0 8 5 13t13 5h36q7 0 12-5t5-13z m72-404v529h-500v-529q0-12 4-22t8-15 6-5h464q2 0 6 5t8 15 4 22z m-375 601h250l-27 65q-4 5-9 6h-177q-6-1-10-6z m518-18v-36q0-8-5-13t-13-5h-54v-529q0-46-26-80t-63-34h-464q-37 0-63 33t-27 79v531h-53q-8 0-13 5t-5 13v36q0 8 5 13t13 5h172l39 93q9 21 31 35t44 15h178q23 0 44-15t30-35l39-93h173q8 0 13-5t5-13z" horiz-adv-x="785.7" />

<glyph glyph-name="up-dir" unicode="&#xe819;" d="M571 171q0-14-10-25t-25-10h-500q-15 0-25 10t-11 25 11 26l250 250q10 10 25 10t25-10l250-250q10-11 10-26z" horiz-adv-x="571.4" />

<glyph glyph-name="down-dir" unicode="&#xe81a;" d="M571 457q0-14-10-25l-250-250q-11-11-25-11t-25 11l-250 250q-11 11-11 25t11 25 25 11h500q14 0 25-11t10-25z" horiz-adv-x="571.4" />

<glyph glyph-name="right-dir" unicode="&#xe81b;" d="M321 350q0-14-10-25l-250-250q-11-11-25-11t-25 11-11 25v500q0 15 11 25t25 11 25-11l250-250q10-10 10-25z" horiz-adv-x="357.1" />

<glyph glyph-name="cog" unicode="&#xe81c;" d="M760 350q0-72 80-122-12-40-34-82-70 18-136-44-54-58-34-136-40-20-84-36-46 82-132 82t-132-82q-44 16-84 36 20 80-34 136-54 54-136 34-14 26-34 82 82 52 82 132 0 72-82 124 20 56 34 82 74-18 136 44 54 56 34 136 42 22 84 34 46-80 132-80t132 80q42-12 84-34-20-78 34-136 66-62 136-44 22-42 34-82-80-50-80-124z m-340-182q76 0 129 53t53 129-53 130-129 54-129-54-53-130 53-129 129-53z" horiz-adv-x="840" />

<glyph glyph-name="clock" unicode="&#xe81d;" d="M0 350q0 95 37 182t100 149 150 100 182 37 182-37 149-100 100-149 37-182-37-182-100-150-149-100-182-37-182 37-150 100-100 150-37 182z m117 0q0-96 47-177t128-128 177-47q95 0 176 47t128 128 47 177q0 95-47 176t-128 128-176 47q-72 0-137-28t-112-75-75-112-28-136z m293 0v224q0 24 17 41t42 18 41-18 17-41v-200l142-141q17-17 17-42t-17-41-41-17q-25 0-42 17l-159 158q-1 2-4 5t-3 4q-1 2-2 4l-2 3t-1 4q-1 0-2 5-2 5-2 5-1 6-1 12z" horiz-adv-x="937.5" />

<glyph glyph-name="play" unicode="&#xe81e;" d="M18 797l670-446-670-448 0 894z" horiz-adv-x="705" />

<glyph glyph-name="signal" unicode="&#xe81f;" d="M222-150h-222v333h222v-333z m371 0h-223v667h223v-667z m148 0v1000h222v-1000h-222z" horiz-adv-x="963" />

<glyph glyph-name="lock" unicode="&#xe820;" d="M179 421h285v108q0 59-42 101t-101 41-101-41-41-101v-108z m464-53v-322q0-22-16-37t-38-16h-535q-23 0-38 16t-16 37v322q0 22 16 38t38 15h17v108q0 102 74 176t176 74 177-74 73-176v-108h18q23 0 38-15t16-38z" horiz-adv-x="642.9" />

<glyph glyph-name="username" unicode="&#xe822;" d="M1462 773l0-846c0-43-35-77-77-77l-1308 0c-42 0-77 34-77 77l0 846c0 43 34 77 77 77l1308 0c42 0 77-34 77-77z m-1308-77l577-461 577 461-1154 0z m0 0l0-692 538 0-538 692z m615-692l539 0 0 692-539-692z" horiz-adv-x="1462" />

<glyph glyph-name="number" unicode="&#xe823;" d="M438 225c172 0 312 140 312 313 0 172-140 312-312 312-173 0-313-140-313-312 0-173 140-313 313-313l0 0z m750 7l-209 0c-19 0-35-14-35-31 0-18 16-32 35-32l209 0c19 0 34 14 34 32 0 17-15 31-34 31l0 0z m0 187l-278 0c-19 0-35-13-35-31 0-17 16-31 35-31l278 0c19 0 34 14 34 31 0 18-15 31-34 31l0 0z m-278 125l278 0c19 0 34 14 34 32 0 17-15 31-34 31l-278 0c-19 0-35-14-35-31 0-18 16-32 35-32l0 0z m278-500l-209 0c-19 0-35-14-35-31 0-17 16-31 35-31l209 0c19 0 34 14 34 31 0 17-15 31-34 31l0 0z m-1174-83l0-111 833 0 0 111c0 148-277 222-416 222-139 0-417-74-417-222z" horiz-adv-x="1222" />

<glyph glyph-name="playfile" unicode="&#xe824;" d="M168 264l49-344c0-34 28-62 62-62l124 0c34 0 62 28 62 62l49 344c-170-71-325-9-346 0l0 0z m421 216l-496 0c-17 0-31 21-31 46 0 25 14 45 31 45l496 0c17 0 31-20 31-45 0-25-14-46-31-46l0 0z m55 148c-29 127-154 222-303 222-150 0-274-95-303-222-23-9-38-31-38-57l0-62c0-34 28-62 62-62 0 0 69-155 279-155 210 0 279 155 279 155 34 0 62 28 62 62l0 62c0 26-16 48-38 57l0 0z" horiz-adv-x="682" />

<glyph glyph-name="manage-client" unicode="&#xe825;" d="M489 415c0-30-24-54-54-54-30 0-55 24-55 54 0 10 3 19 8 27l94 0c4-8 7-17 7-27z m-54-108c60 0 109 48 109 108 0 10-2 19-4 27l199-27-409-380c0-60-9 0-69 0l-152 0c-60 0-109 49-109 109l0 298 330 0c-2-8-4-17-4-27 0-60 49-108 109-108z m326 434c60 0 109-48 109-108l0-136-870 0 0 136c0 60 49 108 109 108l163 0 0 55c0 30 24 54 54 54l218 0c30 0 54-24 54-54l0-55 163 0z m-326-722l439 440 126-126-440-440-125 126z m666 353l-144 145 72 72 72 0 73-72 0-73-73-72z m-644-392l65-65-131-65 66 130z" horiz-adv-x="1174" />

<glyph glyph-name="manage-user" unicode="&#xe826;" d="M400 370c-110 0-200 108-200 240 0 133 90 240 200 240 111 0 200-107 200-240 0-132-89-240-200-240z m-400-227c0 125 240 187 360 187 120 0 200-80 200-80l-200-200-360 0 0 93z m400-137l404 404 116-116-404-404-116 116z m613 324l-133 133 67 67 66 0 67-67 0-66-67-67z m-593-360l60-60-120-60 60 120z" horiz-adv-x="1080" />

<glyph glyph-name="user" unicode="&#xe827;" d="M718 212c-102-39-189-101-189-185l0-59-529 0 0 98c0 130 294 196 441 196 74 0 185-17 277-50z m-247 109c-130 0-236 92-236 206 0 113 106 205 236 205 130 0 235-92 235-205 0-114-105-206-235-206z m117-353c0 156 294 235 441 235 148 0 442-79 442-235l0-118-883 0 0 118z m412 353c-130 0-235 118-235 264 0 147 105 265 235 265 130 0 235-118 235-265 0-146-105-264-235-264z" horiz-adv-x="1471" />

<glyph glyph-name="rewriter" unicode="&#xe828;" d="M939 218c-13 12-51 9-64-3l0-73-125 0-137 171-109-135 163-203 208 0 0-74c13-13 51-7 64 5l177 134c12 12 12 32 0 44l-177 134 0 0z m-64 382l0-70c13-13 51-18 64-5l177 133c12 13 12 33 0 45l-177 134c-13 12-51 19-64 7l0-77-208 0-500-625-84 0c-46 0-83-38-83-84 0-46 37-83 83-83l167 0 500 625 125 0 0 0z m-792 0l84 0 137-171 109 135-163 203-167 0c-46 0-83-38-83-84 0-46 37-83 83-83l0 0z" horiz-adv-x="1125" />

<glyph glyph-name="call-logs" unicode="&#xe829;" d="M765 637l-128-129 92-92-246 0 0 246 92-92 129 128 61-61z m2-580c2-5 5-13 6-18 2-11 0-27-3-36-5-13-18-28-52-60-20-19-55-44-68-49-31-11-55-6-106 23-88 51-170 117-246 199-146 155-240 335-287 548-6 28-6 36-2 56 6 24 17 41 41 63 26 24 84 56 113 62 27 5 50-1 65-19 9-10 48-81 63-113 12-25 27-63 32-79 7-23 5-44-5-62-8-15-14-19-47-37-16-10-32-18-33-19-2-2-5-6-8-10-12-17-11-44 2-89 10-35 25-67 49-105 21-32 48-65 71-85 30-26 70-49 93-53 10-2 26-1 34 3 3 2 17 12 30 24 33 28 42 34 59 36 16 2 36-6 60-25 44-33 126-125 139-155z" horiz-adv-x="783" />

<glyph glyph-name="dashboard" unicode="&#xe82b;" d="M857 850l-143 0c-79 0-143-64-143-143l0-143c0-79 64-143 143-143l143 0c79 0 143 64 143 143l0 143c0 79-64 143-143 143l0 0z m0-571l-143 0c-79 0-143-64-143-143l0-143c0-79 64-143 143-143l143 0c79 0 143 64 143 143l0 143c0 79-64 143-143 143l0 0z m-571 0l-143 0c-79 0-143-64-143-143l0-143c0-79 64-143 143-143l143 0c79 0 143 64 143 143l0 143c0 79-64 143-143 143l0 0z m0 571l-143 0c-79 0-143-64-143-143l0-143c0-79 64-143 143-143l143 0c79 0 143 64 143 143l0 143c0 79-64 143-143 143l0 0z" horiz-adv-x="1000" />

<glyph glyph-name="call-detail" unicode="&#xe82c;" d="M21-123c-14 10-21 25-21 46l0 706c0 21 7 39 22 54 15 15 33 23 54 23 21 0 39-8 54-23 15-15 22-33 22-54l0-706c0-21-7-36-21-46-14-10-33-15-55-15-22 0-41 5-55 15z m272-2c-14 10-21 24-21 43l0 610c0 20 7 38 22 52 15 15 34 22 55 22 20 0 38-7 53-22 15-14 22-32 22-52l0-610c0-19-7-33-21-43-14-10-32-13-54-13-23 0-41 3-56 13z m273-4c-14 8-21 21-21 37l0 845c0 18 7 32 22 45 15 12 33 18 55 18 20 0 38-6 53-18 14-13 22-27 22-45l0-845c0-16-7-29-21-37-14-8-32-11-54-11-23 0-41 3-56 11z" horiz-adv-x="739" />

<glyph glyph-name="filter" unicode="&#xf0b0;" d="M783 685q9-22-8-39l-275-275v-414q0-23-22-33-7-3-14-3-15 0-25 11l-143 143q-10 11-10 25v271l-275 275q-18 17-8 39 9 22 33 22h714q23 0 33-22z" horiz-adv-x="785.7" />
</font>
</defs>
</svg>
